Chicago PD

Chicago PD

Full description

Chicago.PD.S04E11.720P.X264.AAC-MVGEE [Isohunt.to] Verified

Size 384.789 MB   73 seeders     Added 2017-01-12 12:09:08

Chicago.PD.S04E11.720P.X264.AAC-MVGEE

http://www.imdb.com/title/tt2805096/ 

District 21 of the Chicago Police Department is made up of two distinctly different groups. There are the uniformed cops who patrol the beat and go head-to-head with the city's street crimes. And there's the Intelligence Unit, the team that combats the city's major offenses - organized crime, drug trafficking, high profile murders and beyond. 

Year: 2014- 
Genres: Action, Crime, Drama, Thriller 
Creators: Michael Brandt, Derek Haas, Matt Olmstead 
Stars: Jason Beghe, Sophia Bush, Jesse Lee Soffer 
MPA Rating: N/A 
Runtime: 43min 
Rating: 8.2


[img]image[/img]

Duration: 00:41:29.00, start: 0.021333, bitrate: 1236 kb/s
Stream #0:0(und): Video: h264 (Main) (avc1 / 0x31637661), yuv420p, 1280x718 [SAR 1:1 DAR 640:359], 1102 kb/s, 23.98 fps, 23.98 tbr, 24k tbn, 47.95 tbc
Stream #0:1(und): Audio: aac (LC) (mp4a / 0x6134706D), 48000 Hz, stereo, fltp, 129 kb/s
Chicago.PD.S04E11.720P.X264.AAC-MVGEE.mp4 384.789 MB
Gathering some info...

Register and log in Isohunt and see no captcha anymore!

4000 symbols left
Hash f1ca5758cfadfd2d23ef16e3887cbef59f1b3e82

Related torrents for "Chicago.PD.S04E11.720P.X264.AAC-MVGEE [Isohunt.to]"

Torrent search:

season 04 x264 episode 11 hd