Modern Love

Modern Love

Full description

Modern.Family.S08E11.720P.X264.AAC-MVGEE [Isohunt.to]

Size 238.116 MB   10 385 seeders     Added 2017-01-12 10:17:32

Modern.Family.S08E11.720P.X264.AAC-MVGEE

http://www.imdb.com/title/tt1442437/

Told from the perspective of an unseen documentary filmmaker, the series offers an honest, often-hilarious perspective of family life. Parents Phil and Claire yearn for an honest, open relationship with their three kids. But a daughter who is trying to grow up too fast, another who is too smart for her own good, and a rambunctious young son make it challenging. Claire's dad, Jay, and his Latina wife, Gloria, are raising two sons together, but people sometimes believe Jay to be Gloria's father. Jay's gay son, Mitchell, and his partner, Cameron, have adopted a little Asian girl, completing one big -- straight, gay, multicultural, traditional -- happy family

Year: 2009-
Genres: Comedy, Romance
Creator: Martin Gero
Stars: Sullivan Stapleton, Jaimie Alexander, Rob Brown
MPA Rating: TV-PG
Runtime: 22min
Rating: 8.5

[img]image[/img]

Duration: 00:21:26.33, start: 0.021333, bitrate: 1480 kb/s
Stream #0:0(und): Video: h264 (Main) (avc1 / 0x31637661), yuv420p, 1280x718 [SAR 1:1 DAR 640:359], 1345 kb/s, 23.98 fps, 23.98 tbr, 24k tbn, 47.95 tbc
Stream #0:1(und): Audio: aac (LC) (mp4a / 0x6134706D), 48000 Hz, stereo, fltp, 129 kb/s
Modern.Family.S08E11.720P.X264.AAC-MVGEE.mp4 238.116 MB
Gathering some info...

Register and log in Isohunt and see no captcha anymore!

4000 symbols left
Hash 18ca60f70e8b76c9d3874182012128673f3b1834

Related torrents for "Modern.Family.S08E11.720P.X264.AAC-MVGEE [Isohunt.to]"

Torrent search:

x264 episode 11 season 08 hd